Skip to main content

Backyard Tire Fire Live at Double Door on 2010-02-13




Disc 1 (60:14.30)
01. intro
02. Road Song #39
03. Ready Or Not
04. May The Sun Shine Down On You When I'm Gone
05. One Wrong Turn
06. Estelle
07. Downtime >
08. 1000 Gigs Ago
09. Welcome To The Factory
10. Cinnamon Girl
11. Time With You
12. Only You (Kerwin)
13. Learning To Swim
14. Brady
15. Food For Thought

Disc 2 (56:53.64)
16. White On My Walls
17. Piss And Moan
18. Thick Skin
19. Good To Be
20. Jimmy & Bob & Jack
21. The Wrong Hand
22. Handle With Care (Wilbury, Wilbury, Wilbury, Wilbury, Wilbury)
23. How In The Hell'd Ya Get Back Here
24. encore break
25. Rainy Day
26. Lawyers, Guns, & Money (Zevon)
27. Hell & Back >
28. Six Days On The Road (Mongromery, Green)


Collection BackyardTireFire
Band/Artist Backyard Tire Fire
Venue Double Door
Location Chicago IL USA

Source SBD + Audience 4-channel post-production matrix mix
Lineage WAV > Audacity 1.3.11 > xACT 1.71 > FLAC level 8
Taped by Jason "Picklemic" Loomis
Transferred by morst

Notes

Soundboard feed plus The Pickle Mic at the board. Recorded by Jason, mixed by morst

length expanded size cdr WAVE problems fmt ratio filename
0:45.20 7985084 B --- -- ---xx BTF2010-02-13-MTX-d1t01.flac
3:26.13 36369020 B --- -- ---xx BTF2010-02-13-MTX-d1t02.flac
3:39.48 38744540 B --- -- ---xx BTF2010-02-13-MTX-d1t03.flac
3:11.22 33744188 B --- -- ---xx BTF2010-02-13-MTX-d1t04.flac
5:08.09 54352412 B --- -- ---xx BTF2010-02-13-MTX-d1t05.flac
3:23.19 35853932 B --- -- ---xx BTF2010-02-13-MTX-d1t06.flac
3:57.34 41886812 B --- -- ---xx BTF2010-02-13-MTX-d1t07.flac
4:01.25 42571244 B --- -- ---xx BTF2010-02-13-MTX-d1t08.flac
3:30.24 37100492 B --- -- ---xx BTF2010-02-13-MTX-d1t09.flac
4:53.37 51772268 B --- -- ---xx BTF2010-02-13-MTX-d1t10.flac
2:59.35 31657964 B --- -- ---xx BTF2010-02-13-MTX-d1t11.flac
9:03.40 95879324 B --- -- ---xx BTF2010-02-13-MTX-d1t12.flac
4:16.17 45198428 B --- -- ---xx BTF2010-02-13-MTX-d1t13.flac
4:08.53 43871900 B --- -- ---xx BTF2010-02-13-MTX-d1t14.flac
3:50.09 40593212 B --- -- ---xx BTF2010-02-13-MTX-d1t15.flac
4:21.53 46165100 B --- -- ---xx BTF2010-02-13-MTX-d2t01.flac
4:06.25 43453244 B --- -- ---xx BTF2010-02-13-MTX-d2t02.flac
4:12.04 44462252 B --- -- ---xx BTF2010-02-13-MTX-d2t03.flac
3:23.04 35818652 B --- -- ---xx BTF2010-02-13-MTX-d2t04.flac
7:32.43 79833980 B --- -- ---xx BTF2010-02-13-MTX-d2t05.flac
6:39.43 70484780 B --- -- ---xx BTF2010-02-13-MTX-d2t06.flac
3:55.63 41602220 B --- -- ---xx BTF2010-02-13-MTX-d2t07.flac
5:02.48 53385740 B --- -- ---xx BTF2010-02-13-MTX-d2t08.flac
0:36.13 6381020 B --- -- ---xx BTF2010-02-13-MTX-d2t09.flac
4:29.47 47562188 B --- -- ---xx BTF2010-02-13-MTX-d2t10.flac
4:24.26 46630796 B --- -- ---xx BTF2010-02-13-MTX-d2t11.flac
3:40.29 38876252 B --- -- ---xx BTF2010-02-13-MTX-d2t12.flac
4:29.41 47548076 B --- -- ---xx BTF2010-02-13-MTX-d2t13.flac
117:08.19 1239785120 B 0.4608 (28 files)

Reviews

There are no reviews yet. Be the first one to write a review.
DOWNLOAD OPTIONS
Uploaded by
morst
on 2/26/2010
Views
718
Favorites
1
PEOPLE ALSO FOUND
Backyard Tire Fire
by Backyard Tire Fire
492
0
2
( 2 reviews )
Source: AKG C522S > Grace V3 + SBD > Edirol R44
Backyard Tire Fire
by Backyard Tire Fire
1,561
1
0
Source: Antenna > Zenith DTT901 Digital TV Tuner Converter Box > RCA audio outputs > Zoom H2 > WAV @24bit/48kHz
Backyard Tire Fire
by Backyard Tire Fire
1,047
1
0
Source: Neumann KM140's ORTF on tall stand at SBD > Grace V3 + Soundcraft GB8 SBD > Edirol R44
Backyard Tire Fire
by Backyard Tire Fire
266
1
0
Source: Sony PCM-D50 internal mics > WAV
Backyard Tire Fire
by Backyard Tire Fire
2,461
1
0
Source: Neumann KM140's > Beyer MV100 > Zoom H2 @24-bit/48kHz WAV, mics on 8' stand in back of room
Backyard Tire Fire
by Backyard Tire Fire
234
1
0
Source: Neumann KM140's > Marantz PMD661 (Oade mod) > WAV @24/48
Backyard Tire Fire
by Backyard Tire Fire
258
1
1
( 1 reviews )
Source: Crest Century SBD mono matrix out > Edirol R44 > WAV @24/48 + KM140's > MV100 > H2 > WAV @24/48
Backyard Tire Fire
by Backyard Tire Fire
394
1
0
Source: matrix
Backyard Tire Fire
by Backyard Tire Fire
1,416
1
1
( 1 reviews )
Source: Neumann KM140's > Beyer MV100 > Zoom H2 > WAV
Backyard Tire Fire
by Backyard Tire Fire
251
1
0
Source: SBD + The Pickle Mic > Grace V3 > Edirol R44 > WAV @24/48